Shonar Pahar (2018) Bengali 720p HDRip x Torrent Free Download

Seeders : 101   &   Leechers : 261      10-11-2018 (1 week)
Shonar Pahar (2018) Bengali 720p HDRip x Torrent Download
Added: ago by ictv ***** in Movies   1.2 GB   Hits : 25
Info Hash: C4AD1921E4E43AFF3D4E619005CF0E0CDC1C6FD3 Download
Shonar Pahar (2018) Bengali 720p HDRip x Torrent Download

Anonymous and Direct Download movies , software , shows...

Fast Safe Anonymous
movies, software, shows...
Shonar Pahar
Drama   .   N/A   8.2/10
Director : Parambrata Chatterjee  
Writer: Parambrata Chatterjee  
Tags: Shonar  Pahar  (2018)  Bengali  720p  HDRip  

Released:
01 Jun 2018
N/A

Torrent Description



www.movcr.cc


Shonar Pahar (2018) Bengali 720p HDRip x264 AAC 1.2GB - MovCr



http://www.imdb.com/title/tt8347882/




General
Unique ID : 304076133633475845725413003937766944184 (0xE4C2EEE08C1ED9D5FF0A21FC30C3ADB8)
Complete name : www.MovCr.cc - Shonar Pahar (2018) Bengali 720p HDRip x264 AAC 1.2GB - MovCr.mkv
Format : Matroska
Format version : Version 4 / Version 2
File size : 1.18 GiB
Duration : 2 h 11 min
Overall bit rate : 1 281 kb/s
Movie name : www.MovCr.cc
Encoded date : UTC 2018-11-09 19:02:56
Writing application : mkvmerge v26.0.0 ('In The Game') 64-bit
Writing library : libebml v1.3.6 + libmatroska v1.4.9

Video
ID : 1
Format : AVC
Format/Info : Advanced Video Codec
Format profile : [email protected]
Format settings : 2 Ref Frames
Format settings, CABAC : No
Format settings, RefFrames : 2 frames
Format settings, GOP : M=1, N=25
Codec ID : V_MPEG4/ISO/AVC
Duration : 2 h 11 min
Bit rate : 1 182 kb/s
Width : 1 280 pixels
Height : 544 pixels
Display aspect ratio : 2.35:1
Frame rate mode : Constant
Frame rate : 25.000 FPS
Color space : YUV
Chroma subsampling : 4:2:0
Bit depth : 8 bits
Scan type : Progressive
Bits/(Pixel*Frame) : 0.068
Stream size : 1.08 GiB (92%)
Title : www.MovCr.cc
Default : Yes
Forced : No

Audio
ID : 2
Format : AAC
Format/Info : Advanced Audio Codec
Format profile : LC
Codec ID : A_AAC-2
Duration : 2 h 11 min
Bit rate : 96.0 kb/s
Channel(s) : 2 channels
Channel positions : Front: L R
Sampling rate : 48.0 kHz
Frame rate : 46.875 FPS (1024 SPF)
Compression mode : Lossy
Stream size : 90.7 MiB (8%)
Title : www.MovCr.cc
Language : Bengali
Default : Yes
Forced : No












Sharing Widget


No Comments For This Torrent . Be The First to Comment

You must Login to Comment . Click Here to Login

Menu 1

Some content in menu 1.

Shonar Pahar (2018) Bengali 720p HDRip x264 AAC 1 2GB - MovCr (Size: 1.2 GB)
  Shonar Pahar (2018) Bengali 720p HDRip x264 AAC 1 2GB - MovCr 1.2 GB
tracker name
udp://tracker.leechers-paradise.org:6969/announce
udp://zer0day.ch:1337/announce
udp://open.demonii.com:1337/announce
udp://tracker.coppersurfer.tk:6969/announce
udp://exodus.desync.com:6969/announce
µTorrent compatible trackers list

Relative Torrents

Torrent Name Size Age SEED LEECH
Inside North Koreas Dynasty S01E04 Rocke Man 720p WEB x264-CAFFEiNE [eztv]
Posted by    EZTVag   in   TV
1.6 GB 2 minutes 284 508
God Friended Me S01E08 720p WEB x264 [48MB] [MP4]
Posted by    TorrentCouch   in   TV
486.0 MB 2 minutes 414 437
The Clinton Affair S01E02 720p HDTV x264LucidTV [eztv]
Posted by    EZTVag   in   TV
847.5 MB 2 minutes 881 125
Last Week Tonight with John Oliver S05E3 720p WEB-DL x264 [425MB] [MP4]
Posted by    TorrentCouch   in   TV
425.6 MB 2 minutes 827 901
The Real Housewives of Atlanta S11E03 A ew Addition 720p HDTV x264-CRiMSON [ezt
Posted by    EZTVag   in   TV
1.2 GB 2 minutes 874 434