Wreck-It Ralph (2012) x 1600 (2160p) HDR Torrent Free Download

Seeders : 324   &   Leechers : 641      10-11-2018 (1 week)
Wreck-It Ralph (2012) x 1600 (2160p) HDR Torrent Download
Added: ago by PhunPsyz ***** in Movies   2.4 GB   Hits : 19
Info Hash: 3DC120282DDE55F96A726CA6A30C1C5F6EAB90AF Download
Wreck-It Ralph (2012) x 1600 (2160p) HDR Torrent Download

Anonymous and Direct Download movies , software , shows...

Fast Safe Anonymous
movies, software, shows...
Wreck-It Ralph
Animation /Adventure /Comedy /Family /Fantasy  .   101 min   7.7/10
Director : Rich Moore  
Tags: Wreck-It  Ralph  (2012)  x  1600  (2160p)  

Released:
02 Nov 2012
Wreck-It Ralph longs to be as beloved as his game's perfect Good Guy, Fix-It Felix. Problem is, nobody loves a Bad Guy. But they do love heroes... so when a modern, first-person shooter game arrives featuring tough-as-nails Sergeant Calhoun, Ralph sees it as his ti.... See More cket to heroism and happiness. He sneaks into the game with a simple plan -- win a medal -- but soon wrecks everything, and accidentally unleashes a deadly enemy that threatens every game in the arcade. Ralph's only hope? Vanellope von Schweetz, a young troublemaking "glitch" from a candy-coated cart racing game who might just be the one to teach Ralph what it means to be a Good Guy. But will he realize he is good enough to become a hero before it's "Game Over" for the entire arcade?

Torrent Description



www.imdb.com/title/tt1772341/

A video game villain wants to be a hero and sets out to fulfill his dream, but his quest brings havoc to the whole arcade where he lives.

Source: FGT 4K Remux







Format : Matroska
Format version : Version 4 / Version 2
File size : 2.37 GiB
Duration : 1 h 41 min
Overall bit rate : 3 355 kb/s

Video
ID : 1
Format : HEVC
Format/Info : High Efficiency Video Coding
Format profile : Main [email protected]@High
Codec ID : V_MPEGH/ISO/HEVC
Duration : 1 h 41 min
Bit rate : 2 968 kb/s
Width : 3 840 pixels
Height : 1 600 pixels
Display aspect ratio : 2.40:1
Frame rate mode : Constant
Frame rate : 23.976 (24000/1001) FPS
Color space : YUV
Chroma subsampling : 4:2:0
Bit depth : 10 bits
Bits/(Pixel*Frame) : 0.020
Stream size : 2.10 GiB (88%)
Writing library : x265 2.6:[Windows][GCC 7.1.0][64 bit] 10bit

Audio
ID : 2
Format : AC-3
Format/Info : Audio Coding 3
Commercial name : Dolby Digital
Codec ID : A_AC3
Duration : 1 h 41 min
Bit rate mode : Constant
Bit rate : 320 kb/s
Channel(s) : 6 channels
Channel layout : L R C LFE Ls Rs
Sampling rate : 48.0 kHz
Frame rate : 31.250 FPS (1536 SPF)
Bit depth : 16 bits
Compression mode : Lossy
Stream size : 232 MiB (10%)
Title : Surround
Language : English

Text
Language : English
Language : English
Language : French
Language : Spanish
Language : Japanese
Language : Korean
Language : Chinese
Language : Chinese
Language : French
Language : Spanish
Language : Japanese
Language : Korean
Language : Chinese
Default : No
Forced : No




Sharing Widget


No Comments For This Torrent . Be The First to Comment

You must Login to Comment . Click Here to Login

Menu 1

Some content in menu 1.

Wreck-It Ralph (2012) x 1600 (2160p) HDR 5 1 x265 10bit Phun Psyz (Size: 2.4 GB)
  Wreck-It Ralph (2012) x 1600 (2160p) HDR 5 1 x265 10bit Phun Psyz 2.4 GB
tracker name
udp://tracker.leechers-paradise.org:6969/announce
udp://zer0day.ch:1337/announce
udp://open.demonii.com:1337/announce
udp://tracker.coppersurfer.tk:6969/announce
udp://exodus.desync.com:6969/announce
µTorrent compatible trackers list

Relative Torrents

Torrent Name Size Age SEED LEECH
Mickey Mouse Clubhouse S05E04 WEB x264-CiMSON [eztv]
Posted by    EZTVag   in   TV
230.5 MB 5 minutes 929 111
The Clinton Affair S01E01 HDTV x264-LuciTV[TGx]
Posted by    mazemaze16   in   TV
233.9 MB 5 minutes 321 351
Too Stupid to Die S01E03 Too Stupid to Seat 480p x264-mSD [eztv]
Posted by    EZTVag   in   TV
193.2 MB 5 minutes 310 571
The Clinton Affair S01E01 720p HDTV x264LucidTV[TGx]
Posted by    mazemaze16   in   TV
829.0 MB 5 minutes 318 750
Mickey Mouse Clubhouse S05E05 720p WEB x64-CRiMSON [eztv]
Posted by    EZTVag   in   TV
514.1 MB 5 minutes 325 529